#TITLE:MODEL FT2;
#SUBTITLE:Tony;
#ARTIST:Mutsuhiko Izumi;
#TITLETRANSLIT:;
#SUBTITLETRANSLIT:;
#ARTISTTRANSLIT:;
#CREDIT:Tony;
#BANNER:title.jpg;
#BACKGROUND:;
#LYRICSPATH:;
#CDTITLE:model ft2.png;
#MUSIC:MODEL FT2.ogg;
#OFFSET:-0.080;
#SAMPLESTART:13.780;
#SAMPLELENGTH:19.860;
#SELECTABLE:YES;
#DISPLAYBPM:155.000;
#BPMS:0.000=155.000,72.000=310.000,72.500=77.500,72.750=310.000,73.250=77.500,73.500=310.000,73.854=77.500,73.875=77.500,74.000=155.000,80.000=310.000,80.500=77.500,80.750=310.000,81.250=77.500,81.500=310.000,81.813=77.500,81.854=77.500,82.000=155.000,214.000=310.000,214.688=77.500,214.750=77.500,215.000=310.000,215.313=77.500,215.375=77.500,215.500=155.000,220.000=310.000,220.500=77.500,220.750=310.000,221.250=77.500,221.500=310.000,221.854=77.500,222.000=155.000,228.000=310.000,228.500=77.500,228.750=310.000,229.250=77.500,229.500=310.000,229.813=77.500,229.854=77.500,230.000=155.000;
#STOPS:;
#BGCHANGES:;
// cache tags:
#FIRSTBEAT:0.000;
#LASTBEAT:256.000;
#SONGFILENAME:Songs/Lon`/MODEL FT2/MODEL FT2.sm;
#HASMUSIC:1;
#HASBANNER:1;
#MUSICLENGTH:102.373;
// end cache tags

//---------------dance-single - ----------------
#NOTES:
     dance-single:
     :
     Hard:
     18:
     1.000,1.000,1.000,0.166,1.000,808.000,315.000,17.000,0.000,55.000:
0001
0000
0000
0000
0001
0000
0000
0000
0001
0000
0000
0000
1000
0100
0010
0001
,
1100
0000
1000
0100
0011
0000
0001
0010
1100
0000
0010
0100
1010
0001
0100
0010
,
0101
0000
1000
0100
1010
0000
0010
0001
0110
0000
0100
0010
1010
1000
0100
0010
,
1001
0000
0100
0100
1001
0000
0010
0010
1001
0000
1100
0000
1000
0100
0010
0001
,
1100
0000
0100
1000
0011
0000
0100
0010
1101
0000
0001
0000
1001
1000
1000
1000
,
0111
0000
0010
0100
1010
0000
0100
0010
0101
0000
0001
0010
0101
0000
1000
0100
,
1010
0000
0010
0001
0110
0000
1000
0100
0011
0000
0010
0001
0011
1000
0100
0010
,
0101
0000
0010
0100
1001
0000
0010
0010
1001
0000
0001
0000
1001
0100
0010
0001
,
1011
0001
0001
0001
1101
0000
0001
0001
1010
0000
1011
0000
0000
0000
0010
0001
,
1010
0000
1000
0010
1100
0000
1000
0000
1010
0100
1010
0001
1001
0000
1000
0000
,
1100
0000
1000
0100
1010
0000
1000
0001
1010
0000
1000
0000
1200
0000
1000
0000
,
1320
0000
1000
1000
1100
0000
1030
0000
1001
0100
0010
0001
0010
0100
0010
0001
,
1100
0000
0100
0100
1100
0000
1000
0000
1101
0000
0001
0000
1011
0000
0010
0010
,
1001
0000
0001
1000
0011
0000
0001
0000
0101
0010
1001
0100
0011
0000
0001
0000
,
0101
0000
0001
0010
0101
0000
0101
0010
1001
0000
0001
0000
2001
0000
0001
0000
,
3201
0000
0001
0000
0011
0000
0301
0000
1001
0010
0100
0010
1001
0100
0010
0001
,
1100
0000
0100
0100
1010
0000
0001
0000
1010
0000
0100
0000
1110
0000
1000
1000
,
0112
0000
0010
1000
0110
0000
0013
0000
0101
0000
1000
0000
1100
0000
0100
0010
,
1101
0000
0000
1011
0000
0000
1110
0000
1100
0010
0001
0100
1001
0010
0100
1010
,
1102
0000
1000
0010
1100
0000
0100
0000
0113
0000
0001
0000
1010
0000
1000
0100
,
1011
0000
0000
1101
0000
0000
0111
0000
1001
1001
0010
0100
1010
0001
0110
1001
,
0210
0000
1000
0001
0011
0000
1300
0000
1100
0000
0010
0000
1001
0000
0010
0000
,
1110
0000
0000
1000
0111
0000
0000
0010
1101
0010
0100
1000
0001
0010
0100
1000
,
1000
0100
0010
0001
1000
0100
0010
0001
1000
0100
0010
0001
0110
1000
0100
0010
,
0001
0010
0001
0010
0001
0010
0100
1000
0100
0010
0001
0010
0100
0010
0100
1000
0100
0010
0001
0010
0100
1000
0100
0010
,
1001
0110
0110
0110
1001
0000
1001
0000
2002
0000
0000
0000
0010
0010
0100
0100
,
3013
0010
1000
1000
1010
1000
0010
0010
1001
0001
0100
0100
1000
0100
0010
0001
,
1100
0100
0010
0010
1000
1000
0001
0001
0100
0100
0010
0010
1001
1001
0010
0100
,
1010
0001
0010
0100
0011
0100
1000
0100
1010
0100
0010
0001
0110
0001
0010
0100
,
1001
1000
0100
0100
0010
0010
0001
0001
0010
0010
0100
0100
1000
1000
0110
0110
,
1001
0010
0100
0010
1001
1001
1010
0100
1010
1010
0101
0100
0011
0011
0110
1000
,
1010
1010
0101
0010
0101
1001
0110
1000
0110
0110
0110
0001
1100
0110
1100
0110
,
0011
0100
1010
0001
0101
1010
0101
0010
0100
1010
0101
1010
0101
0010
1100
0110
,
0011
1000
1100
1010
1001
1001
1001
0000
0110
1001
0110
0000
1011
0000
0000
0000
,
0110
0000
0000
0000
1001
0010
0100
0010
1001
0010
0101
0010
1001
0100
0010
0100
,
1001
0010
0101
1000
0101
0010
0001
1000
0101
0010
1100
1000
0011
0100
0010
1000
,
0101
0010
0100
1010
0101
0010
0100
1000
1010
1000
1000
0101
1010
0100
0010
0001
,
1010
0100
0001
0100
1010
0001
0100
0010
1100
0001
0010
0100
1010
1010
1010
1010
,
1101
1100
0010
0101
0110
1000
0101
0010
,
1100
0010
0001
0010
0101
0001
0100
0010
1100
1000
0010
0001
0110
1000
0010
1000
,
0101
1010
0101
0010
1100
0000
0101
0000
1000
0000
0101
0000
1000
0000
0010
0001
,
1010
0100
1000
0100
1001
0100
0010
0001
0110
0001
0010
0100
1010
0001
0100
0010
,
1101
1100
0010
0101
0110
1000
0101
0010
,
1100
0001
0100
0010
1001
0100
0010
0001
1010
0001
0100
1000
0110
1000
0100
0010
,
0101
0000
0011
0110
1100
0000
1100
0110
0011
0000
0011
0110
1100
0000
1100
0110
,
0011
0000
0011
0110
1100
0000
1010
1100
0011
0000
1001
0000
0000
0000
0100
0010
,
1001
0000
0001
0001
0001
0000
0001
0000
1001
0100
0010
0001
1001
0000
0001
0000
,
0101
0000
1000
0000
0100
0000
0001
0001
0011
0000
0010
0000
0101
0000
1000
1000
,
0101
0000
0001
0001
0110
0000
0010
0000
1001
0100
0010
0001
1000
0010
0100
0001
,
0110
0000
0100
1000
0011
0000
1000
0000
1110
0000
0000
0000
0111
0000
0010
0100
,
1001
0000
1000
1000
1100
0000
1000
1000
1001
0100
0010
0001
1010
0000
1000
1000
,
1100
0000
1010
1000
1000
0000
1000
1001
1010
0000
1000
1000
1002
0000
1000
1000
,
1123
0000
1000
1000
1001
0000
1030
1000
1010
0101
1010
0001
0110
1001
0110
0001
,
0110
0110
0110
0110
0110
0000
1010
1100
0011
0000
0000
0000
1001
0000
0010
0010
,
1001
0000
0101
0010
0011
0000
0001
0000
0101
0000
0011
1000
0001
0000
0001
0010
,
1101
0000
0000
1101
0000
0000
0111
0000
1001
1001
0110
0110
1010
0100
0010
0001
,
1020
0000
1000
0100
1100
0000
1030
0000
1001
0000
1010
0001
1000
0000
1000
0100
,
1011
0000
0000
0111
0000
0000
1011
0000
0110
1001
0110
0110
1100
1001
0100
1001
,
0120
0000
0100
0001
1100
0000
0130
0000
0101
0000
0100
1000
0011
0000
0001
0000
,
1101
0000
0000
1000
0111
0000
0000
0010
1101
0010
0100
1000
0001
0010
0100
1000
,
1000
0100
0010
0001
1000
0100
0010
0001
1000
0100
0010
0001
0110
1000
0100
0010
,
0001
0010
0001
0010
0001
0010
0100
1000
0100
0010
0001
0010
0100
0010
0100
1000
0100
0010
0001
0010
0100
1000
0100
0010
,
1001
0110
0110
0110
1001
0000
1001
1001
0000
2002
0000
0000
0010
0010
0100
0100
,
3013
0000
0000
0000
0000
0000
0000
0000
0000
0000
0000
0000
0010
0000
0000
0000
0000
0000
0000
0000
0000
0000
0000
0000
1000
0000
0000
0000
0000
0000
0000
0000
0000
0000
0000
0000
1000
0000
0000
0000
0000
0000
0000
0000
0000
0000
0000
0000
0010
0000
0000
0000
0000
0000
0000
0000
0000
0000
0000
0000
1000
0000
0000
0000
0000
0000
0000
0000
0000
0000
0000
0000
0010
0000
0000
0000
0000
0000
0000
0000
0000
0000
0000
0000
0010
0000
0000
0000
0000
0000
0000
0000
0000
0000
0000
0000
1001
2002
0000
0000
0000
0000
0000
0000
0000
0000
0000
0000
0000
0000
0000
0000
0000
0000
0000
0000
0000
0000
0000
0000
0000
0000
0000
0000
0000
0000
0000
0000
0000
0000
0000
0000
0000
0000
0000
0000
0000
0000
0000
0000
0000
0000
0000
0000
0000
0000
0000
0000
0000
0000
0000
0000
0000
0000
0000
0000
0000
0000
0000
0000
0000
0000
0000
0000
0000
0000
0000
0000
0000
0000
0000
0000
0000
0000
0000
0000
0000
0000
0000
0000
0000
0000
0000
0000
0000
0000
0000
0000
0000
0000
0000
0000
,
3003
0000
0000
0000
;
